<svg xmlns="http://www.w3.org/2000/svg">
<defs>
<font
   id="FontID0"
   font-variant="normal"
   font-style="normal"
   font-weight="900"
   horiz-origin-x="0"
   horiz-origin-y="0"
   horiz-adv-x="90"
   vert-origin-x="45"
   vert-origin-y="90"
   vert-adv-y="90">
	<font-face
   font-family="Arial Black"
   id="font-face2">
	</font-face>
   <missing-glyph
   id="missing-glyph6"><path
     d="M0 0z"
     id="path4" /></missing-glyph>
   <glyph
   unicode="!"
   horiz-adv-x="332"
   id="glyph10"><path
     d="M60.504 715.83l212.492 0 0 -163.162 -41.0001 -327.5 -131.331 0 -40.1613 327.5 0 163.162zm7.32853 -540.493l198.336 0 0 -175.337 -198.336 0 0 175.337z"
     id="path8" /></glyph>
   <glyph
   unicode="."
   horiz-adv-x="332"
   id="glyph14"><path
     d="M60.504 199.163l212.492 0 0 -199.163 -212.492 0 0 199.163z"
     id="path12" /></glyph>
   <glyph
   unicode=" "
   horiz-adv-x="333"
   id="glyph16" />
   <glyph
   unicode="1"
   horiz-adv-x="667"
   id="glyph20"><path
     d="M491.664 728.003l0 -728.003 -201.16 0 0 476.997c-32.5027,-24.666 -64.0062,-44.6642 -94.5031,-59.9946 -30.3329,-15.3379 -68.5024,-30.0048 -114.501,-44.0005l0 163.162c67.8314,21.8325 120.332,48.0047 157.831,78.5016 37.3345,30.6684 66.6682,68.5024 87.837,113.338l164.497 0z"
     id="path18" /></glyph>
   <glyph
   unicode="4"
   horiz-adv-x="666"
   id="glyph24"><path
     d="M382.835 133.831l-362.334 0 0 163.502 362.334 430.666 173.33 0 0 -439.831 89.8349 0 0 -154.337 -89.8349 0 0 -133.831 -173.33 0 0 133.831zm0 154.337l0 224.996 -191.5 -224.996 191.5 0z"
     id="path22" /></glyph>
   <glyph
   unicode="0"
   horiz-adv-x="666"
   id="glyph28"><path
     d="M40.9978 360.834c0,135.998 24.5008,231.332 73.5025,285.668 49.0017,54.3315 123.665,81.4973 223.835,81.4973 48.1652,0 87.8328,-5.83266 118.665,-17.8317 31.0009,-11.8345 56.1645,-27.3349 75.6646,-46.3368 19.5001,-18.9973 35.0005,-38.9956 46.1676,-59.9996 11.3362,-20.9994 20.332,-45.5003 27.1658,-73.498 13.3338,-53.4996 20.0029,-109.166 20.0029,-166.999 0,-130.001 -22.0005,-225.001 -66.0014,-285.17 -43.8318,-60.3333 -119.501,-90.3331 -226.998,-90.3331 -60.1688,0 -108.837,9.50322 -145.999,28.8342 -37.1672,19.1664 -67.5007,47.3332 -91.3342,84.3359 -17.1689,26.4984 -30.6672,62.5 -40.1658,108.165 -9.66778,45.8339 -14.5039,96.3349 -14.5039,151.668zm197.337 -0.502816c0,-91.1651 7.99934,-153.331 24.1672,-186.663 15.9987,-33.5012 39.4985,-50.1673 69.9965,-50.1673 20.1675,0 37.67,7.16741 52.5031,21.3331 14.8331,14.1657 25.6665,36.4999 32.6647,66.9979 6.99828,30.6672 10.4997,78.3341 10.4997,143.17 0,95.0002 -7.99934,158.999 -24.1672,191.664 -15.9987,32.6693 -40.1658,49.0017 -72.4969,49.0017 -32.8339,0 -56.6673,-16.6661 -71.1667,-50.0027 -14.6685,-33.3321 -22.0005,-95.1647 -22.0005,-185.333z"
     id="path26" /></glyph>
   <glyph
   unicode="2"
   horiz-adv-x="667"
   id="glyph32"><path
     d="M623.002 0l-596.665 0c6.83011,59.0029 27.6634,114.33 62.3285,166.331 34.6651,51.8373 99.6704,113.167 195.001,183.839 58.3318,43.1654 95.5023,76.1602 111.832,98.4998 16.3371,22.4961 24.5019,43.829 24.5019,63.9987 0,21.8325 -8.16482,40.496 -24.1664,55.998 -16.1656,15.3305 -36.4993,23.1672 -60.8298,23.1672 -25.5011,0 -46.1704,-8.00078 -62.336,-24.0023 -16.0016,-15.8301 -26.8358,-44.0005 -32.5027,-84.4965l-199.162 16.1656c7.82928,55.998 22.1606,99.663 42.9939,131.166 20.8333,31.332 50.167,55.4984 88.1726,72.1636 37.834,16.8367 90.3275,25.173 157.495,25.173 69.8372,0 124.336,-8.00078 163.334,-23.8383 38.8332,-16.0016 69.5016,-40.496 91.6696,-73.4983 22.3321,-33.1663 33.5018,-70.1652 33.5018,-111.168 0,-43.665 -12.84,-85.3317 -38.3336,-125 -25.5011,-39.6683 -71.9995,-83.3333 -139.339,-130.831 -40.1605,-27.6709 -66.8322,-46.998 -80.3284,-58.1678 -13.5036,-10.9983 -29.5052,-25.5011 -47.6691,-43.3369l310.502 0 0 -162.163z"
     id="path30" /></glyph>
   <glyph
   unicode="O"
   horiz-adv-x="832"
   id="glyph36"><path
     d="M45.335 357.498c0,116.834 32.6649,207.836 97.667,272.834 65.166,65.166 155.832,97.667 271.997,97.667 119.168,0 211.002,-32.0006 275.5,-95.9975 64.3334,-63.833 96.6706,-153.502 96.6706,-268.666 0,-83.6684 -14.1669,-152.337 -42.3369,-205.834 -28.1655,-53.5012 -68.8328,-95.1693 -121.997,-125 -53.3329,-29.8351 -119.5,-44.6663 -199.001,-44.6663 -80.6659,0 -147.501,12.8339 -200.502,38.4973 -52.8325,25.8361 -95.6653,66.5034 -128.667,122.166 -32.8332,55.6668 -49.3295,125.337 -49.3295,209.001zm221.33 -0.996422c0,-72.3358 13.3343,-124.167 40.1669,-155.836 26.837,-31.5002 63.5009,-47.3322 109.668,-47.3322 47.5005,0 84.3327,15.4999 110.333,46.3314 26,30.9998 39.166,86.5027 39.166,166.5 0,67.4998 -13.6665,116.67 -40.8311,147.834 -27.1691,30.9998 -64.0013,46.4997 -110.669,46.4997 -44.498,0 -80.3293,-15.6637 -107.33,-47.3322 -27.0008,-31.5002 -40.5034,-83.8323 -40.5034,-156.664z"
     id="path34" /></glyph>
   <glyph
   unicode="C"
   horiz-adv-x="777"
   id="glyph40"><path
     d="M549.831 292.502l193.838 -58.6674c-13.0041,-54.3352 -33.5018,-99.6704 -61.5008,-136.17 -27.999,-36.4993 -62.8355,-63.9987 -104.338,-82.4982 -41.4952,-18.6635 -94.3316,-27.8349 -158.33,-27.8349 -77.8305,0 -141.501,11.3338 -190.669,33.8374 -49.3319,22.6676 -91.9977,62.5 -127.833,119.497 -35.6642,56.9971 -53.6641,129.832 -53.6641,218.668 0,118.498 31.4961,209.668 94.5031,273.167 62.9996,63.6632 152.164,95.5023 267.329,95.5023 90.1709,0 161,-18.1714 212.666,-54.6707 51.6658,-36.4993 89.9994,-92.4973 115.001,-168.001l-195.329 -43.501c-6.83757,21.84 -14.0032,37.834 -21.5044,48.0047 -12.333,16.8292 -27.4994,29.8333 -45.3352,38.9973 -17.9999,9.16398 -37.9981,13.6677 -60.1661,13.6677 -49.9955,0 -88.4932,-20.1697 -115.165,-60.5017 -20.1623,-29.9973 -30.3329,-76.9953 -30.3329,-141.166 0,-79.5007 12.1689,-133.836 36.1713,-163.334 24.1664,-29.4977 57.9963,-44.1646 101.497,-44.1646 42.3303,0 74.3334,11.8334 96.0018,35.6642 21.661,23.6668 37.327,58.1678 47.1621,103.503z"
     id="path38" /></glyph>
   <glyph
   unicode="M"
   horiz-adv-x="943"
   id="glyph44"><path
     d="M70.8363 715.835l290.996 0 112.331 -435.502 111.839 435.502 289.996 0 0 -715.835 -180.662 0 0 545.835 -140.166 -545.835 -163.505 0 -139.667 545.835 0 -545.835 -181.162 0 0 715.835z"
     id="path42" /></glyph>
   <glyph
   unicode="A"
   horiz-adv-x="777"
   id="glyph48"><path
     d="M513.668 118.17l-251.998 0 -34.6725 -118.17 -225.998 0 268.999 715.835 241.172 0 269.163 -715.835 -231.501 0 -35.1646 118.17zm-46.3344 154.833l-79.1652 257.33 -78.6656 -257.33 157.831 0z"
     id="path46" /></glyph>
   <glyph
   unicode="D"
   horiz-adv-x="777"
   id="glyph52"><path
     d="M76.1677 715.835l328.666 0c64.6698,0 116.999,-8.8359 157.003,-26.3362 39.8324,-17.6643 72.8272,-42.8299 98.8278,-75.6681 26.0007,-32.9948 44.8357,-71.1644 56.6691,-114.829 11.6694,-43.665 17.5003,-89.8354 17.5003,-138.668 0,-76.5032 -8.6644,-135.834 -26.1647,-178 -17.3363,-42.1662 -41.5026,-77.5024 -72.4991,-105.829 -30.8399,-28.506 -64.0062,-47.5051 -99.5064,-57.0046 -48.4968,-12.9966 -92.4973,-19.4986 -131.83,-19.4986l-328.666 0 0 715.835zm221.166 -162.17l0 -390.994 54.1637 0c46.3344,0 79.1726,4.99582 98.6713,15.3305 19.4986,10.1631 34.8291,28.163 45.9989,53.6641 10.9983,25.5011 16.5011,67.0037 16.5011,124.336 0,75.8321 -12.333,127.669 -36.9989,155.668 -24.8374,27.999 -65.833,41.9948 -123.173,41.9948l-55.1628 0z"
     id="path50" /></glyph>
   <glyph
   unicode="I"
   horiz-adv-x="389"
   id="glyph56"><path
     d="M81.9986 715.835l221.665 0 0 -715.835 -221.665 0 0 715.835z"
     id="path54" /></glyph>
   <glyph
   unicode="E"
   horiz-adv-x="722"
   id="glyph60"><path
     d="M72.8346 715.835l592.669 0 0 -152.835 -371.003 0 0 -113.83 344.168 0 0 -146.005 -344.168 0 0 -141.002 381.83 0 0 -162.163 -603.496 0 0 715.835z"
     id="path58" /></glyph>
   <glyph
   unicode="J"
   horiz-adv-x="667"
   id="glyph64"><path
     d="M371.167 715.833l221.665 0 0 -389.166c0,-81.6682 -7.33185,-143.835 -21.8325,-186.5 -14.5007,-42.6671 -43.5002,-78.8336 -87.3337,-108.5 -43.8335,-29.5013 -99.833,-44.3334 -168.167,-44.3334 -72.3331,0 -128.333,9.66652 -167.999,29.3328 -39.8343,19.4997 -70.5002,47.9993 -92.0013,85.6656 -21.6659,37.5014 -34.5002,84.0011 -38.3328,139.334l211.334 28.8329c0.333266,-31.499 3.16602,-54.9997 8.33345,-70.3336 5.16562,-15.332 13.999,-27.6665 26.3316,-36.9997 8.50009,-6.33205 20.5013,-9.33325 36.1684,-9.33325 24.6653,0 42.8319,9.16662 54.4998,27.4999 11.4995,18.4999 17.3334,49.5008 17.3334,93.0011l0 441.499z"
     id="path62" /></glyph>
   <glyph
   unicode="N"
   horiz-adv-x="832"
   id="glyph68"><path
     d="M74.6689 715.835l206.663 0 269.499 -396.005 0 396.005 208.505 0 0 -715.835 -208.505 0 -268.164 393 0 -393 -207.998 0 0 715.835z"
     id="path66" /></glyph>
   <glyph
   unicode="K"
   horiz-adv-x="832"
   id="glyph72"><path
     d="M74.166 715.834l221.168 0 0 -270.5 232 270.5 294 0 -260.833 -270.001 272.499 -445.833 -272.499 0 -150.834 294.5 -114.334 -119.668 0 -174.833 -221.168 0 0 715.834z"
     id="path70" /></glyph>
   <glyph
   unicode="T"
   horiz-adv-x="722"
   id="glyph76"><path
     d="M23.0032 715.835l672.334 0 0 -176.837 -225.67 0 0 -538.997 -221.166 0 0 538.997 -225.498 0 0 176.837z"
     id="path74" /></glyph>
   <glyph
   unicode="S"
   horiz-adv-x="722"
   id="glyph80"><path
     d="M34.6669 236.835l210.502 13.1646c4.49792,-34.1686 13.832,-60.1688 27.8331,-78.165 22.6633,-29.0033 55.3326,-43.3336 97.6651,-43.3336 31.4991,0 55.8354,7.33197 72.9997,22.165 16.9997,14.8331 25.5019,32.0019 25.5019,51.502 0,18.499 -7.99934,35.1651 -24.3363,49.8336 -16.3324,14.6639 -53.9978,28.4959 -113.33,41.496 -97.0023,21.8359 -166.167,50.6701 -207.503,86.8363 -41.6651,36.1662 -62.5,82.1647 -62.5,138.165 0,36.8335 10.6688,71.6695 32.0019,104.334 21.3331,32.6647 53.3305,58.3312 96.1658,77.1685 42.8353,18.6636 101.5,27.9977 175.999,27.9977 91.4988,0 161.335,-16.9997 209.336,-50.9992 47.9961,-33.9995 76.4966,-88.1665 85.6661,-162.332l-208.499 -12.1681c-5.50355,32.1665 -17.1689,55.6663 -35.0005,70.3348 -17.6671,14.4994 -42.168,21.8313 -73.3334,21.8313 -25.8356,0 -45.1666,-5.33442 -58.1666,-16.3324 -13.0001,-10.8334 -19.5001,-24.1672 -19.5001,-39.8322 0,-11.3362 5.33442,-21.5022 15.9987,-30.6672 10.4997,-9.50322 35.1651,-18.1699 74.3345,-26.3338 96.664,-20.8349 165.833,-41.9988 207.667,-63.3365 41.8297,-21.3331 72.3323,-47.6624 91.3296,-79.3306 19.0019,-31.4991 28.6696,-66.8334 28.6696,-106.003 0,-45.8294 -12.8355,-88.1665 -38.1683,-126.833 -25.3328,-38.8311 -60.8316,-68.1635 -106.501,-88.1665 -45.5003,-19.9984 -103,-29.9998 -172.333,-29.9998 -121.663,0 -205.999,23.3352 -252.834,70.3348 -46.9996,46.835 -73.498,106.332 -79.6643,178.669z"
     id="path78" /></glyph>
   <glyph
   unicode="R"
   horiz-adv-x="777"
   id="glyph84"><path
     d="M76.1677 0l0 715.835 368.662 0c68.3384,0 120.668,-5.83095 156.668,-17.6643 36.1713,-11.6694 65.3335,-33.3378 87.5015,-65.1694 22.168,-31.6676 33.1663,-70.3367 33.1663,-115.836 0,-39.8324 -8.50036,-73.9979 -25.3296,-102.832 -17.0007,-28.8341 -40.332,-52.1654 -69.8372,-70.1652 -18.999,-11.3338 -44.8282,-20.8333 -77.6664,-28.1705 26.3362,-8.82844 45.4993,-17.6643 57.6682,-26.5002 8.00078,-5.83095 19.8342,-18.328 35.3361,-37.4985 15.4945,-19.3346 25.8292,-34.0014 30.9965,-44.5001l107 -207.498 -250 0 -118.17 218.832c-14.9949,28.1705 -28.3271,46.6699 -40.1605,55.1703 -15.8375,10.9983 -34.0014,16.5011 -54.1711,16.5011l-19.4986 0 0 -290.503 -222.165 0zm222.165 425.831l93.3324 0c9.99911,0 29.5052,3.16899 58.5033,9.67102 14.6668,2.99749 26.6643,10.4987 35.9998,22.4961 9.16398,12.0049 13.8317,25.8366 13.8317,41.5026 0,23.1672 -7.32969,40.8315 -21.9965,53.1645 -14.6668,12.5045 -42.1737,18.671 -82.5057,18.671l-97.1651 0 0 -145.505z"
     id="path82" /></glyph>
   <glyph
   unicode="P"
   horiz-adv-x="722"
   id="glyph88"><path
     d="M72.3351 715.835l367.663 0c80.0003,0 140.002,-18.999 179.835,-57.1686 39.8324,-37.9981 59.8306,-92.3333 59.8306,-162.499 0,-72.3351 -21.661,-128.833 -65.162,-169.5 -43.501,-40.6675 -109.834,-61.0013 -198.998,-61.0013l-121.003 0 0 -265.666 -222.165 0 0 715.835zm222.165 -305.17l54.1637 0c42.6658,0 72.5066,7.33715 89.8354,22.168 17.1648,14.8309 25.8366,33.8374 25.8366,56.8331 0,22.5036 -7.50119,41.6667 -22.5036,57.1686 -14.8309,15.666 -43.0014,23.5027 -84.3325,23.5027l-62.9996 0 0 -159.673z"
     id="path86" /></glyph>
   <glyph
   unicode="X"
   horiz-adv-x="777"
   id="glyph92"><path
     d="M24.0006 715.833l243.5 0 127 -220.165 123 220.165 241.333 0 -222.667 -346.667 243.666 -369.166 -248.498 0 -141.167 230 -141.667 -230 -247.001 0 247.001 373 -224.5 342.833z"
     id="path90" /></glyph>
   <glyph
   unicode="V"
   horiz-adv-x="777"
   id="glyph96"><path
     d="M2.50213 715.834l231.329 0 161.168 -515.168 158.666 515.168 224.669 0 -265.668 -715.834 -239.664 0 -270.5 715.834z"
     id="path94" /></glyph>
   <glyph
   unicode="d"
   horiz-adv-x="667"
   id="glyph100"><path
     d="M605.996 715.83l0 -715.83 -185.998 0 0 76.6641c-26.1683,-32.4948 -49.8316,-54.4921 -71.3279,-65.9917 -28.6733,-14.8435 -60.504,-22.3351 -95.667,-22.3351 -70.6754,0 -124.666,26.8324 -162.008,80.4973 -37.1669,53.6648 -55.8319,119.004 -55.8319,195.831 0,85.9966 20.5059,151.662 61.8322,197.171 41.1749,45.6606 93.4999,68.4967 156.835,68.4967 31.0035,0 59.001,-5.33619 84.3421,-15.6707 25.1663,-10.4976 47.4898,-25.9935 67.1568,-46.8257l0 247.993 200.666 0zm-199.327 -455.161c0,40.8254 -8.50528,71.1648 -25.8304,91.1697 -17.1737,19.9932 -39.0078,29.9899 -65.3392,29.9899 -23.1623,0 -42.5031,-9.65874 -58.1622,-28.8248 -15.6707,-19.166 -23.5002,-51.3346 -23.5002,-96.669 0,-42.34 8.1674,-73.3319 24.1643,-92.9989 16.16,-19.667 36.1649,-29.5005 59.8283,-29.5005 25.5042,0 46.6742,9.83351 63.4984,29.6636 17.0106,20.0049 25.3411,52.3366 25.3411,97.17z"
     id="path98" /></glyph>
   <glyph
   unicode="f"
   horiz-adv-x="389"
   id="glyph104"><path
     d="M281.338 518.496l94.665 0 0 -145.499 -94.665 0 0 -372.997 -199.338 0 0 372.997 -74.1707 0 0 145.499 74.1707 0 0 23.5002c0,21.17 2.33021,44.5071 6.82753,69.8365 4.67208,25.3294 13.1774,46.1616 25.6673,62.1701 12.5016,16.16 30.1763,29.1626 52.6745,39.1593 22.6613,9.83351 55.8319,14.8435 99.5002,14.8435 34.8251,0 85.3325,-4.00797 151.825,-12.1754l-21.9972 -120.169c-23.8264,4.00797 -42.9925,5.83719 -57.6612,5.83719 -17.8378,0 -30.6656,-2.99433 -38.5068,-8.99463 -7.82952,-6.0003 -13.3288,-15.5076 -16.661,-28.4985 -1.6661,-7.17706 -2.33021,-22.3351 -2.33021,-45.5091z"
     id="path102" /></glyph>
   <glyph
   unicode="i"
   horiz-adv-x="332"
   id="glyph108"><path
     d="M67.3316 715.83l198.837 0 0 -135.327 -198.837 0 0 135.327zm0 -197.334l198.837 0 0 -518.496 -198.837 0 0 518.496z"
     id="path106" /></glyph>
   <glyph
   unicode="n"
   horiz-adv-x="667"
   id="glyph112"><path
     d="M60.003 518.496l185.159 0 0 -84.3305c27.6713,34.4988 55.6688,59.001 84.0042,73.8329 28.3354,14.8318 62.8342,22.3351 103.496,22.3351 55.0047,0 98.0088,-16.4979 129.175,-49.1675 30.9919,-32.6696 46.4994,-83.1654 46.4994,-151.499l0 -329.667 -199.676 0 0 285.172c0,32.4948 -6.0003,55.4941 -17.9893,68.9977 -12.1754,13.6667 -29.0112,20.3311 -50.8336,20.3311 -24.0012,0 -43.6682,-9.16939 -58.5,-27.3334 -15.0066,-18.164 -22.5099,-50.9967 -22.5099,-98.1719l0 -248.995 -198.826 0 0 518.496z"
     id="path110" /></glyph>
   <glyph
   unicode="o"
   horiz-adv-x="667"
   id="glyph116"><path
     d="M35.6639 257.838c0,78.9943 26.6693,144.334 80.0079,195.493 53.4901,51.3346 125.494,77.0019 216.325,77.0019 103.834,0 182.339,-30.1646 235.34,-90.3308 42.6662,-48.5034 63.9993,-108.332 63.9993,-179.333 0,-79.67 -26.5062,-144.998 -79.3322,-196.006 -52.8376,-50.8336 -126.006,-76.3262 -219.506,-76.3262 -83.3285,0 -150.66,21.1583 -202.169,63.4984 -63.1605,52.3366 -94.665,120.996 -94.665,206.003zm199.175 0.489345c0,-46.3247 9.33251,-80.4973 28.1606,-102.494 18.665,-22.172 42.1652,-33.3337 70.5006,-33.3337 28.6616,0 52.1619,10.9986 70.5006,32.8327 18.5019,21.8341 27.6713,56.6708 27.6713,104.999 0,44.8333 -9.34416,78.3302 -27.8344,100.339 -18.5019,21.8341 -41.5011,32.8327 -68.8345,32.8327 -28.9995,0 -53.0007,-11.1734 -71.8405,-33.3337 -18.8281,-22.3351 -28.3238,-56.3329 -28.3238,-101.842z"
     id="path114" /></glyph>
   <glyph
   unicode="l"
   horiz-adv-x="333"
   id="glyph120"><path
     d="M66.8345 715.829l199.333 0 0 -715.829 -199.333 0 0 715.829z"
     id="path118" /></glyph>
   <glyph
   unicode="h"
   horiz-adv-x="666"
   id="glyph124"><path
     d="M60.0004 715.829l198.837 0 0 -263.659c26.9997,27.9925 53.831,47.9985 80.4939,60.0004 26.6717,12.1614 58.3339,18.1623 94.8358,18.1623 53.9994,0 96.5023,-16.4959 127.668,-49.337 30.9974,-32.9918 46.5005,-83.3304 46.5005,-151.326l0 -329.67 -199.67 0 0 285.163c0,32.5043 -6.00092,55.5063 -18.0028,69.0062 -12.1614,13.6594 -28.9941,20.334 -50.8261,20.334 -24.0037,0 -43.6729,-9.17423 -58.5023,-27.3365 -14.9979,-18.1712 -22.4968,-51.0034 -22.4968,-98.1687l0 -248.998 -198.837 0 0 715.829z"
     id="path122" /></glyph>
   <glyph
   unicode="e"
   horiz-adv-x="667"
   id="glyph128"><path
     d="M635.671 209.999l-398.339 0c3.49532,-31.9938 12.1637,-55.6688 25.8304,-71.3279 19.166,-22.5099 44.3323,-33.6716 75.1727,-33.6716 19.4922,0 38.1689,4.8352 55.6688,14.6687 10.8238,6.16342 22.3235,16.9989 34.6619,32.6696l195.831 -18.0009c-30.0015,-52.1735 -66.0033,-89.5035 -108.332,-112.165 -42.3284,-22.5099 -102.995,-33.8347 -182.165,-33.8347 -68.6714,0 -122.663,9.65874 -162.171,28.9995 -39.334,19.3291 -71.992,50.1579 -97.8341,92.3348 -25.8304,42.1652 -38.833,91.659 -38.833,148.656 0,81.0099 26.0052,146.675 77.8408,196.67 51.9987,50.1695 123.664,75.3358 215.16,75.3358 74.1707,0 132.834,-11.3365 175.675,-33.8347 42.9925,-22.3351 75.8252,-54.9931 98.1603,-97.4962 22.4982,-42.6662 33.6716,-98.1719 33.6716,-166.505l0 -22.4982zm-202.006 95.166c-3.99632,38.5068 -14.3308,66.0033 -31.0035,82.5013 -16.8242,16.6727 -38.833,25.0032 -66.1664,25.0032 -31.656,0 -56.8223,-12.6647 -75.8252,-37.6679 -12.0006,-15.6707 -19.667,-38.833 -22.8361,-69.8365l195.831 0z"
     id="path126" /></glyph>
   <glyph
   unicode="s"
   horiz-adv-x="610"
   id="glyph132"><path
     d="M24.8284 143.495l197.334 18.6767c8.1674,-23.5002 19.5039,-40.336 34.1726,-50.3326 14.6687,-10.1714 34.1609,-15.1697 58.6632,-15.1697 26.6693,0 47.3383,5.66242 62.007,17.162 11.3248,8.33052 16.9989,19.0029 16.9989,31.6676 0,14.3308 -7.50329,25.3294 -22.3351,33.1706 -10.8355,5.49931 -39.334,12.3268 -85.5072,20.4942 -68.9977,12.1754 -117,23.174 -143.833,33.5085 -26.8324,10.3229 -49.4938,27.6596 -67.8326,51.9987 -18.5019,24.3274 -27.6596,52.1619 -27.6596,83.4916 0,34.1726 9.99662,63.6731 29.8267,88.3384 19.8301,24.8284 47.1635,43.3303 82.0003,55.4941 34.8367,12.1754 81.4993,18.3388 140.174,18.3388 61.8322,0 107.493,-4.8352 136.993,-14.1677 29.5005,-9.49563 54.0027,-24.1643 73.6697,-43.9945 19.667,-19.8418 36.0018,-46.6742 49.1675,-80.5089l-188.503 -18.665c-4.99831,16.6727 -13.0026,28.8364 -24.5022,36.6659 -15.659,10.4976 -34.4988,15.6707 -56.6592,15.6707 -22.3351,0 -38.833,-3.99632 -49.0044,-12.0006 -10.3345,-8.00429 -15.3328,-17.663 -15.3328,-28.9995 0,-12.8395 6.5013,-22.3351 19.5039,-28.8364 12.9909,-6.5013 41.3264,-12.3268 84.9946,-17.663 66.0033,-7.50329 115.171,-17.8378 147.339,-31.1666 32.3317,-13.3288 56.9971,-32.3317 73.996,-57.1718 17.162,-24.6653 25.6673,-51.824 25.6673,-81.4993 0,-30.0015 -9.00628,-59.1642 -27.1703,-87.4996 -18.0009,-28.3354 -46.4994,-50.8336 -85.3325,-67.4947 -38.9961,-16.8358 -91.9969,-25.1663 -159.002,-25.1663 -94.665,0 -162.16,13.4919 -202.333,40.4991 -40.1613,26.9955 -66.0033,65.5023 -77.5029,115.159z"
     id="path130" /></glyph>
   <glyph
   unicode="r"
   horiz-adv-x="443"
   id="glyph136"><path
     d="M61.9954 518.496l186.009 0 0 -84.8315c18.0009,36.6659 36.4912,62.007 55.4941,75.8368 19.0029,13.8298 42.5031,20.8321 70.5006,20.8321 29.3374,0 61.3313,-9.16939 96.168,-27.3334l-61.506 -141.665c-23.3254,9.83351 -41.9905,14.6687 -55.6572,14.6687 -26.0052,0 -46.1732,-10.8355 -60.504,-32.1686 -20.5059,-30.3394 -30.8287,-86.9986 -30.8287,-170.001l0 -173.834 -199.676 0 0 518.496z"
     id="path134" /></glyph>
   <glyph
   unicode="u"
   horiz-adv-x="666"
   id="glyph140"><path
     d="M606.501 0l-185.665 0 0 84.004c-27.6734,-34.5075 -55.5063,-59.1671 -83.6672,-73.6686 -28.1698,-14.6699 -62.8368,-22.0004 -103.833,-22.0004 -54.6731,0 -97.5039,16.3275 -128.67,49.0001 -30.9974,32.6638 -46.5005,83.162 -46.5005,151.167l0 329.998 199.67 0 0 -285.163c0,-32.5043 6.00092,-55.6659 17.9939,-69.3341 12.1703,-13.6683 29.003,-20.5024 50.835,-20.5024 23.8353,0 43.1676,9.16537 58.3339,27.3365 15.1663,18.3307 22.6652,50.9945 22.6652,98.1687l0 249.495 198.837 0 0 -518.499z"
     id="path138" /></glyph>
   <glyph
   unicode="p"
   horiz-adv-x="666"
   id="glyph144"><path
     d="M61.002 -197.33l0 715.829 186.002 0 0 -76.6647c25.8297,32.3358 49.3281,54.1678 70.8322,65.496 28.9941,15.3347 60.9931,23.0021 96.1654,23.0021 69.3341,0 122.997,-26.6629 160.997,-79.6696 37.8315,-52.9978 56.8359,-118.662 56.8359,-196.834 0,-86.1669 -20.6708,-152 -62.0036,-197.499 -41.3328,-45.3304 -93.6658,-67.9957 -156.662,-67.9957 -30.6694,0 -58.6708,5.16771 -83.8356,15.4943 -25.1649,10.5038 -47.8301,26.0069 -67.6677,46.5005l0 -247.66 -200.663 0zm199.333 455.166c0,-41.0048 8.50057,-71.5058 25.8297,-91.3346 17.1696,-19.8376 39.0016,-29.8362 65.3365,-29.8362 23.1616,0 42.5028,9.5022 58.1655,28.6661 15.6627,19.0044 23.4984,51.3314 23.4984,96.8391 0,41.9976 -8.16374,72.8265 -24.5001,92.4957 -16.1679,19.8376 -36.1651,29.6678 -59.4951,29.6678 -25.5017,0 -46.6689,-9.99858 -63.5016,-29.8362 -17.0011,-19.8287 -25.3333,-52.1646 -25.3333,-96.6618z"
     id="path142" /></glyph>
   <glyph
   unicode="t"
   horiz-adv-x="443"
   id="glyph148"><path
     d="M299.833 715.829l0 -197.33 109.337 0 0 -144.997 -109.337 0 0 -183.999c0,-22.1688 2.16281,-36.8387 6.32889,-44.0009 6.50617,-11.0002 17.8343,-16.6732 34.1707,-16.6732 14.6699,0 35.1635,4.33449 61.4984,12.8351l14.6699 -137.33c-49.1686,-10.6722 -95.0043,-15.9995 -137.667,-15.9995 -49.5054,0 -85.9984,6.32889 -109.337,18.9955 -23.4984,12.6666 -40.8275,31.999 -51.9962,57.8375 -11.337,25.8297 -16.8327,67.8361 -16.8327,125.833l0 182.501 -73.3318 0 0 144.997 73.3318 0 0 95.3322 199.165 101.998z"
     id="path146" /></glyph>
   <glyph
   unicode="w"
   horiz-adv-x="943"
   id="glyph152"><path
     d="M1.49801 518.499l192.34 0 83.4988 -326.665 105.499 326.665 179.168 0 109.328 -326.665 83.4988 326.665 191.001 0 -191.001 -518.499 -176.668 0 -104.994 312.004 -101.502 -312.004 -177.829 0 -192.34 518.499z"
     id="path150" /></glyph>
  </font>
</defs>
</svg>
